Warning! Do NOT Download Without a VPN!
Your IP Address is .   Location is
Your Internet Provider and Government can track your download activities! Hide your IP ADDRESS with a VPN!
We strongly recommend using CyberGhost VPN to anonymize your Downloading. It's FREE!
START YOUR FREE TRIAL NOW!

Avril Lavigne - 2018 - Avril Lavigne (24-96)

Torrent Details

Avril Lavigne - 2018 - Avril Lavigne (24-96)

NAME
Avril Lavigne - 2018 - Avril Lavigne (24-96).torrent
CATEGORY
Music
INFOHASH
3f5b906fc8f7402a10eebf7331da1c808baf8a9d
SIZE
344 MB in 14 files
ADDED
Uploaded on 02-04-2018 by our crawler pet called "Spidey".
SWARM
5 seeders & 4 peers
RATING
No votes yet.

Please login to vote for this torrent.


Description

--------------------------------------------------------------------------------
Analyzed: Avril Lavigne / Avril Lavigne
--------------------------------------------------------------------------------

DR         Peak         RMS     Duration Track
--------------------------------------------------------------------------------
DR11      -7.52 dB   -20.79 dB      3:22 01-Rock N Roll
DR11      -6.44 dB   -20.19 dB      3:29 02-Here's To Never Growing Up
DR10      -7.78 dB   -21.74 dB      3:18 03-17
DR10      -8.45 dB   -22.48 dB      3:26 04-Bitchin' Summer
DR11      -8.61 dB   -23.08 dB      4:20 05-Let Me Go
DR12      -8.54 dB   -22.82 dB      3:39 06-Give You What You Like
DR10      -6.80 dB   -19.40 dB      2:52 07-Bad Girl
DR10      -8.31 dB   -20.84 dB      3:13 08-Hello Kitty
DR10      -7.41 dB   -19.53 dB      3:09 09-You Ain't Seen Nothin' Yet
DR11      -7.73 dB   -21.03 dB      3:26 10-Sippin' On Sunshine
DR10      -7.82 dB   -20.84 dB      3:42 11-Hello Heartache
DR13      -8.03 dB   -24.44 dB      3:05 12-Falling Fast
DR11      -8.41 dB   -23.08 dB      3:53 13-Hush Hush
--------------------------------------------------------------------------------

Number of tracks:  13
Official DR value: DR11

Samplerate:        96000 Hz
Channels:          2
Bits per sample:   24
Bitrate:           979 kbps
Codec:             FLAC=====================================

Discussion

Comments 0

Post Your Comment

Files in this torrent

FILENAMESIZE
Avril Lavigne/01. Rock N Roll.flac29.2 MB
Avril Lavigne/02. Here's To Never Growing Up.flac29.5 MB
Avril Lavigne/03. 17.flac26.4 MB
Avril Lavigne/04. Bitchin' Summer.flac26.1 MB
Avril Lavigne/05. Let Me Go.flac31 MB
Avril Lavigne/06. Give You What You Like.flac25.4 MB
Avril Lavigne/07. Bad Girl.flac23.8 MB
Avril Lavigne/08. Hello Kitty.flac24.9 MB
Avril Lavigne/09. You Ain't Seen Nothin' Yet.flac26.8 MB
Avril Lavigne/10. Sippin' On Sunshine.flac26.1 MB
Avril Lavigne/11. Hello Heartache.flac28.2 MB
Avril Lavigne/12. Falling Fast.flac19.7 MB
Avril Lavigne/13. Hush Hush.flac27.2 MB
Avril Lavigne/foo_dr.txt1.5 KB

Alternative Torrents for ''.

There are no alternative torrents found.